Game of Thrones S07E04 Watch & Download

0
551

Download Game of Thrones S07E04 Watch from HabeEvil.com with direct download links, 

Summary : Nine noble families fight for control over the mythical lands of  Westeros, while a forgotten race returns after being dormant for thousands of years.

7×4 | THE SPOILS OF WAR

Daenerys holds court. Cersei returns a gift. Jaime learns from his mistakes.

Media Info General
Video
ID : 1
Format : AVC
Format/Info : Advanced Video Codec
Format profile : High@L3.1
Format settings, CABAC : Yes
Format settings, ReFrames : 5 frames
Codec ID : V_MPEG4/ISO/AVC
Duration : 51mn 21s
Bit rate mode : Variable
Bit rate : 2 713 Kbps
Maximum bit rate : 4 500 Kbps
Width : 1 280 pixels
Height : 720 pixels
Display aspect ratio : 16:9
Frame rate mode : Constant
Frame rate : 23.976 (24000/1001) fps
Color space : YUV
Chroma subsampling : 4:2:0
Bit depth : 8 bits
Scan type : Progressive
Bits/(Pixel*Frame) : 0.123
Stream size : 997 MiB (81%)
Default : Yes
Forced : No
Color range : Limited
Color primaries : BT.709
Transfer characteristics : BT.709
Matrix coefficients : BT.709

Audio
ID : 2
Format : E-AC-3
Format/Info : Audio Coding 3
Format settings, Endianness : Big
Codec ID : A_EAC3
Duration : 51mn 21s
Bit rate mode : Constant
Bit rate : 640 Kbps
Channel(s) : 6 channels
Channel positions : Front: L C R, Side: L R, LFE
Sampling rate : 48.0 KHz
Frame rate : 187.500 fps (256 spf)
Compression mode : Lossy
Delay relative to video : 7ms
Stream size : 235 MiB (19%)
Language : English
Default : Yes
Forced : No

Text
ID : 3
Format : UTF-8
Codec ID : S_TEXT/UTF8
Codec ID/Info : UTF-8 Plain Text
Duration : 51mn 6s
Bit rate : 48 bps
Count of elements : 617
Stream size : 18.0 KiB (0%)
Language : English
Default : No
Forced : No


Download Links:

Game.of.Thrones.S07E04.The.Spoils.of.War.720p.AMZN.WEBRip.DDP5 (1.2 GB):
Download Link 1 | Download Link  2 Download Link  3

Game.of.Thrones.S07E04.720p.WEB.h264-TBS (1 GB):
Download Link 1 | Download Link  2 Download Link  3

Watch Online 720p!    Watch Online Web-DL!

Advertisements!!!
Fast Download! Direct Download!

Download Subtitles here!


Screens:

Leave a Thank You! :D or Reply